Push 2009][DVDRip|HP]
Xem chủ đề cũ hơn Xem chủ đề mới hơn Go down

Copy đường link dưới đây gửi đến nick yahoo bạn bè!

Sat May 09, 2009 11:37 pm


billy90
Member
Member
.:.Thông tin.:.

Nam
Tổng số bài gửi : 71
Age : 30
Tâm trạng :
Gia nhập : 11/04/2009
Bài gửiTiêu đề: Push 2009][DVDRip|HP]

[SIZE="5"][color:f48d="Lime"]Push.2009.DVDRip.XviD-HP[/SIZE]







Code:
F I L E - I N F O
-------------------------------------------------
TITLE......[ Push
YEAR.......[ 2009
GENRE......[ Thriller
RUNTIME....[ 01:51:08
STORE DATE.[ 2009 (USA)
IMDB RATE..[ 6.5/10 (4,331 Votes)
IMDB URL...[ http://www.imdb.com/title/tt0465580/
-------------------------------------------------
Format : AVI
Format/Info : Audio Video Interleave
File size : 800 MiB
Duration : 1h 51mn
Overall bit rate : 1 006 Kbps
Writing application : VirtualDubMod 1.5.4.1 (build 2178/release)
Writing library : VirtualDubMod build 2178/release
SOURCE : DVD
-------------------------------------------------
V I D E O
-------------------------------------------------
Format : MPEG-4 Visual
Format profile : Streaming Video@L1
Format settings, BVOP : Yes
Format settings, QPel : No
Format settings, GMC : No warppoints
Format settings, Matrix : Custom
Codec ID : XVID
Codec ID/Hint : XviD
Duration : 1h 51mn
Bit rate : 887 Kbps
Width : 624 pixels
Height : 288 pixels
Display aspect ratio : 2.2
Frame rate : 25.000 fps
Resolution : 24 bits
Colorimetry : 4:2:0
Scan type : Progressive
Bits/(Pixel*Frame) : 0.197
Stream size : 705 MiB (88%)
Writing library : XviD 1.2.1
-------------------------------------------------
A U D I O
-------------------------------------------------
Format : MPEG Audio
Format version : Version 1
Format profile : Layer 3
Codec ID : 55
Codec ID/Hint : MP3
Duration : 1h 51mn
Bit rate mode : Constant
Bit rate : 112 Kbps
Minimum bit rate : 112 Kbps
Channel(s) : 2 channels
Sampling rate : 44.1 KHz
Resolution : 16 bits
Stream size : 89.0 MiB (11%)
Alignment : Split accross interleaves
Interleave, duration : 80 ms (2.00 video frames)
Interleave, preload duration : 500 ms
Writing library : LAME3.97
Encoding settings : CBR
-------------------------------------------------
P L O T
-------------------------------------------------
On the run from the Division, a dangerous government
agency that uses people with psychic abilities to do
their bidding, telekinetic Nick Gant (Chris Evans)
and clairvoyant Cassie Holmes (Dakota Fanning) team
up to find a third psychic who can help them destroy
the organization. But when the Division picks up their
trail, it sends a powerful agent (Djimon Hounsou) to
stop them at all costs. Paul McGuigan directs this
thriller.

Starring: Dakota Fanning, Chris Evans

Director: Paul McGuigan

Download
Code:
http://rapidshare.com/files/231098718/PI_Ish.2OO9.DVDRip.XviD-HP.part1.rar
http://rapidshare.com/files/231156617/PI_Ish.2OO9.DVDRip.XviD-HP.part2.rar
http://rapidshare.com/files/231156263/PI_Ish.2OO9.DVDRip.XviD-HP.part3.rar
http://rapidshare.com/files/231182854/PI_Ish.2OO9.DVDRip.XviD-HP.part4.rar
http://rapidshare.com/files/231183531/PI_Ish.2OO9.DVDRip.XviD-HP.part5.rar
http://rapidshare.com/files/231200882/PI_Ish.2OO9.DVDRip.XviD-HP.part6.rar
http://rapidshare.com/files/231201075/PI_Ish.2OO9.DVDRip.XviD-HP.part7.rar
http://rapidshare.com/files/231204192/PI_Ish.2OO9.DVDRip.XviD-HP.part8.rar


Chữ ký billy90

Push 2009][DVDRip|HP]
Xem chủ đề cũ hơn Xem chủ đề mới hơn Về Đầu Trang 
Trang 1 trong tổng số 1 trang
Nếu chèn smilies có vấn đề thì bấm A/a trên phải khung viết bài

Permissions in this forum: Bạn không có quyền trả lời bài viết
CallBoy Community - World Of Teen !! :: Forum Movie :: Kho phim download :: Phim [Âu - Mỹ] -
Copyright © 2008-2009, CallBoy Community. All rights reserved.
Address: www.callboy.crazy4us.com, www.starphim.vn2.us
ĐT: (1800) Ngu Gì Để - Fax: (1800) Ngu Gì Cho.
Thiết kế: ¶v¶®• JÎm¶v¶¥. Phát triển bởi CallBoy's Members.
Giấy phép ICP số 20/09-CBC.
Powered by phpBB® Version 2.0
Copyright ©2009, Forumotion.
Xem tốt nhất ở độ phần giải lớn hơn 1024x768 và trình duyệt Firefox
Get Firefox Now Get Windows Media Player Now
Free forum | © phpBB | Free forum support | Liên hệ | Report an abuse | Have a free blog with Sosblogs